Pirates of the Caribbean On Stranger Tides 2011 1080p BluRay x264...

  • Category Movies
  • Type HD
  • Language English
  • Total size 7.9 GB
  • Uploaded By showstopper
  • Downloads 2229
  • Last checked 1 week ago
  • Date uploaded 1 week ago
  • Seeders 40
  • Leechers 19

Pirates of the Caribbean: On Strang...

ActionAdventureFantasy

Captain Jack Sparrow crosses paths with a woman from his past, and he's not sure if it's love -- or if she's a ruthless con artist who's using him to find the fabled Fountain of Youth. When she forces him aboard the Queen Anne's Revenge, the ship of the formidable pirate Blackbeard, Jack finds himself on an unexpected adventure in which he doesn't know who to fear more: Blackbeard or the woman from his past.

Infohash : F58B5DD122F96731AC3B1246AECBAC8D57BDA4EC

Pirates of the Caribbean On Stranger Tides 2011 1080p BluRay x264 DTS 5.1- MRG

ImDb: http://www.imdb.com/title/tt1298650



Complete name : Pirates of the Caribbean On Stranger Tides (2011) 1080p BluRay x264 DTS 5.1- MRG.mkv
Format : Matroska
Format version : Version 4 / Version 2
File size : 7.91 GiB
Duration : 2 h 16 min
Overall bit rate : 8 293 kb/s
Movie name : [email protected] @ Team Hon3y
Encoded date : UTC 2017-06-22 18:20:03
Writing application : mkvmerge v9.4.2 ('So High') 64bit
Writing library : libebml v1.3.4 + libmatroska v1.4.5

Video
ID : 1
Format : AVC
Format/Info : Advanced Video Codec
Format profile : [email protected]
Format settings, CABAC : Yes
Format settings, ReFrames : 5 frames
Codec ID : V_MPEG4/ISO/AVC
Duration : 2 h 16 min
Bit rate : 6 819 kb/s
Width : 1 920 pixels
Height : 800 pixels
Display aspect ratio : 2.40:1
Frame rate mode : Constant
Frame rate : 23.976 (24000/1001) FPS
Color space : YUV
Chroma subsampling : 4:2:0
Bit depth : 8 bits
Scan type : Progressive
Bits/(Pixel*Frame) : 0.185
Stream size : 6.50 GiB (82%)
Writing library : x264 core 148 r2705 3f5ed56
Encoding settings : cabac=1 / ref=5 / deblock=1:-1:-1 / analyse=0x3:0x133 / me=umh / subme=9 / psy=1 / psy_rd=1.00:0.15 / mixed_ref=1 / me_range=24 / chroma_me=1 / trellis=2 / 8x8dct=1 / cqm=0 / deadzone=21,11 / fast_pskip=0 / chroma_qp_offset=-3 / threads=12 / lookahead_threads=1 / sliced_threads=0 / nr=250 / decimate=1 / interlaced=0 / bluray_compat=0 / constrained_intra=0 / bframes=3 / b_pyramid=2 / b_adapt=2 / b_bias=0 / direct=3 / weightb=1 / open_gop=0 / weightp=2 / keyint=250 / keyint_min=23 / scenecut=40 / intra_refresh=0 / rc_lookahead=60 / rc=2pass / mbtree=1 / bitrate=6819 / ratetol=1.0 / qcomp=0.60 / qpmin=0 / qpmax=69 / qpstep=4 / cplxblur=20.0 / qblur=0.5 / ip_ratio=1.40 / aq=1:1.00
Language : English
Default : Yes
Forced : No

Audio
ID : 2
Format : DTS
Format/Info : Digital Theater Systems
Mode : 16
Format settings, Endianness : Big
Codec ID : A_DTS
Duration : 2 h 12 min
Bit rate mode : Constant
Bit rate : 1 509 kb/s
Channel(s) : 6 channels
Channel positions : Front: L C R, Side: L R, LFE
Sampling rate : 48.0 kHz
Frame rate : 93.750 FPS (512 spf)
Bit depth : 24 bits
Compression mode : Lossy
Stream size : 1.40 GiB (18%)
Language : English
Default : Yes
Forced : No

Text #1
ID : 3
Format : UTF-8
Codec ID : S_TEXT/UTF8
Codec ID/Info : UTF-8 Plain Text
Duration : 2 h 12 min
Bit rate : 51 b/s
Count of elements : 1509
Stream size : 49.9 KiB (0%)
Language : English
Default : Yes
Forced : No

Text #2
ID : 4
Format : VobSub
Muxing mode : zlib
Codec ID : S_VOBSUB
Codec ID/Info : Picture based subtitle format used on DVDs
Duration : 2 h 6 min
Bit rate : 14 b/s
Count of elements : 4
Stream size : 13.4 KiB (0%)
Language : French
Default : No
Forced : No

Text #3
ID : 5
Format : VobSub
Muxing mode : zlib
Codec ID : S_VOBSUB
Codec ID/Info : Picture based subtitle format used on DVDs
Duration : 2 h 5 min
Bit rate : 3 952 b/s
Count of elements : 1331
Stream size : 3.56 MiB (0%)
Language : English
Default : No
Forced : No

Menu
00:00:00.000 : en:Chapter 01
00:03:34.172 : en:Chapter 02
00:08:46.776 : en:Chapter 03
00:15:56.080 : en:Chapter 04
00:18:34.154 : en:Chapter 05
00:21:15.315 : en:Chapter 06
00:30:05.512 : en:Chapter 07
00:36:56.756 : en:Chapter 08
00:42:05.356 : en:Chapter 09
00:48:20.022 : en:Chapter 10
00:53:26.077 : en:Chapter 11
00:55:42.964 : en:Chapter 12
00:57:52.844 : en:Chapter 13
01:00:47.477 : en:Chapter 14
01:08:22.223 : en:Chapter 15
01:11:41.338 : en:Chapter 16
01:13:03.170 : en:Chapter 17
01:14:16.743 : en:Chapter 18
01:23:19.994 : en:Chapter 19
01:26:49.621 : en:Chapter 20
01:30:16.494 : en:Chapter 21
01:35:43.737 : en:Chapter 22
01:40:57.926 : en:Chapter 23
01:43:07.556 : en:Chapter 24
01:44:51.660 : en:Chapter 25
01:48:53.610 : en:Chapter 26
01:57:41.471 : en:Chapter 27
02:02:21.375 : en:Chapter 28
02:05:51.460 : en:Chapter 29
02:07:26.805 : en:Chapter 30
02:16:23.592 : en:Chapter 31






Click To View Screenshot

Click To View Screenshot

Click To View Screenshot

Files:

Pirates of the Caribbean On Stranger Tides 2011 1080p BluRay x264 DTS 5.1- MRG
  • Pirates of the Caribbean On Stranger Tides (2011) 1080p BluRay x264 DTS 5.1- MRG.mkv (7.9 GB)

Comments

Code:

  • udp://tracker.coppersurfer.tk:6969/announce
  • udp://tracker.pirateparty.gr:6969/announce
  • udp://shadowshq.yi.org:6969/announce
  • udp://eddie4.nl:6969/announce
  • udp://tracker.leechers-paradise.org:6969/announce
  • udp://tracker.opentrackr.org:1337/announce
  • udp://p4p.arenabg.ch:1337/announce
  • udp://p4p.arenabg.com:1337/announce
  • udp://9.rarbg.me:2710/announce
  • udp://9.rarbg.to:2710/announce
  • udp://ipv4.tracker.harry.lu:80/announce
  • udp://tracker.grepler.com:6969/announce
  • udp://public.popcorn-tracker.org:6969/announce
  • udp://tracker.opentrackr.org:1337/announce
  • udp://tracker.zer0day.to:1337/announce