The Boss Baby 2017 (1080p Bluray x265 HEVC 10bit AAC 7.1 Tigole) ...

  • Category Movies
  • Type HEVC/x265
  • Language English
  • Total size 2.4 GB
  • Uploaded By UTRplus
  • Downloads 827
  • Last checked 1 day ago
  • Date uploaded 6 days ago
  • Seeders 20
  • Leechers 12

The Boss Baby

AnimationComedyFamily

A story about how a new baby's arrival impacts a family, told from the point of view of a delightfully unreliable narrator, a wildly imaginative 7 year old named Tim.

Infohash : 74311C16516B57890827B06A992E086B2E9CB121



The Boss Baby 2017 in 1080p, encoded with x265 in HEVC and AAC 7.1 English, with subtitles!
Encoded using the time consuming 2 pass, 10 bit color at 2500 kbps, from a Blu-ray source, for the highest quality possible.



Media Information

Code:

General
Format : Matroska
Format version : Version 4 / Version 2
File size : 2.10 GiB
Duration : 1 h 37 min
Overall bit rate : 3 083 kb/s
Movie name : The Boss Baby
Encoded date : UTC 2017-07-15 00:52:19
Writing application : mkvmerge v12.0.0 ('Trust / Lust') 64bit
Writing library : libebml v1.3.4 + libmatroska v1.4.5

Video
ID : 1
Format : HEVC
Format/Info : High Efficiency Video Coding
Format profile : Main [email protected]@Main
Codec ID : V_MPEGH/ISO/HEVC
Duration : 1 h 37 min
Bit rate : 2 500 kb/s
Width : 1 920 pixels
Height : 816 pixels
Display aspect ratio : 2.35:1
Frame rate mode : Constant
Frame rate : 23.976 (24000/1001) FPS
Color space : YUV
Chroma subsampling : 4:2:0
Bit depth : 10 bits
Bits/(Pixel*Frame) : 0.067
Stream size : 1.70 GiB (81%)
Writing library : x265 2.4+90-67dcf6e79090:[Windows][GCC 6.2.1][64 bit] 10bit
Encoding settings : cpuid=1173503 / frame-threads=3 / numa-pools=8 / wpp / no-pmode / no-pme / no-psnr / no-ssim / log-level=2 / input-csp=1 / input-res=1920x816 / interlace=0 / total-frames=140280 / level-idc=0 / high-tier=1 / uhd-bd=0 / ref=4 / no-allow-non-conformance / no-repeat-headers / annexb / no-aud / no-hrd / info / hash=0 / no-temporal-layers / open-gop / min-keyint=23 / keyint=250 / bframes=4 / b-adapt=2 / b-pyramid / bframe-bias=0 / rc-lookahead=25 / lookahead-slices=4 / scenecut=40 / no-intra-refresh / ctu=64 / min-cu-size=8 / rect / no-amp / max-tu-size=32 / tu-inter-depth=1 / tu-intra-depth=1 / limit-tu=0 / rdoq-level=2 / dynamic-rd=0.00 / no-ssim-rd / signhide / no-tskip / nr-intra=0 / nr-inter=0 / no-constrained-intra / strong-intra-smoothing / max-merge=3 / limit-refs=3 / limit-modes / me=3 / subme=3 / merange=57 / temporal-mvp / weightp / no-weightb / no-analyze-src-pics / deblock=0:0 / sao / no-sao-non-deblock / rd=4 / no-early-skip / rskip / no-fast-intra / no-tskip-fast / no-cu-lossless / no-b-intra / rdpenalty=0 / psy-rd=2.00 / psy-rdoq=1.00 / no-rd-refine / analysis-reuse-mode=0 / no-lossless / cbqpoffs=0 / crqpoffs=0 / rc=abr / bitrate=2500 / qcomp=0.60 / qpstep=4 / stats-write=0 / stats-read=2 / cplxblur=20.0 / qblur=0.5 / ipratio=1.40 / pbratio=1.30 / aq-mode=2 / aq-strength=1.00 / cutree / zone-count=0 / no-strict-cbr / qg-size=32 / no-rc-grain / qpmax=69 / qpmin=0 / no-const-vbv / sar=0 / overscan=0 / videoformat=5 / range=0 / colorprim=2 / transfer=2 / colormatrix=2 / chromaloc=0 / display-window=0 / max-cll=0,0 / min-luma=0 / max-luma=1023 / log2-max-poc-lsb=8 / vui-timing-info / vui-hrd-info / slices=1 / opt-qp-pps / opt-ref-list-length-pps / no-multi-pass-opt-rps / scenecut-bias=0.05 / no-opt-cu-delta-qp / no-aq-motion / no-hdr / no-hdr-opt / no-dhdr10-opt / analysis-reuse-level=5 / scale-factor=0 / refine-intra=0 / refine-inter=0 / refine-mv=0 / no-limit-sao / ctu-info=0
Default : Yes
Forced : No

Audio
ID : 2
Format : AAC
Format/Info : Advanced Audio Codec
Format profile : LC
Codec ID : A_AAC
Duration : 1 h 37 min
Bit rate : 529 kb/s
Channel(s) : 8 channels
Channel positions : Front: L C R, Side: 4, LFE
Sampling rate : 48.0 kHz
Frame rate : 46.875 FPS (1024 spf)
Compression mode : Lossy
Delay relative to video : 20 ms
Stream size : 369 MiB (17%)
Language : English
Default : Yes
Forced : No

Text #1
ID : 3
Format : VobSub
Muxing mode : zlib
Codec ID : S_VOBSUB
Codec ID/Info : Picture based subtitle format used on DVDs
Duration : 1 h 36 min
Bit rate : 8 370 b/s
Count of elements : 2013
Stream size : 5.78 MiB (0%)
Language : English
Default : No
Forced : No

Text #2
ID : 4
Format : VobSub
Muxing mode : zlib
Codec ID : S_VOBSUB
Codec ID/Info : Picture based subtitle format used on DVDs
Duration : 17 s 93 ms
Bit rate : 5 619 b/s
Count of elements : 9
Stream size : 11.7 KiB (0%)
Title : Forced
Language : English
Default : No
Forced : Yes

Text #3
ID : 5
Format : VobSub
Muxing mode : zlib
Codec ID : S_VOBSUB
Codec ID/Info : Picture based subtitle format used on DVDs
Duration : 1 h 36 min
Bit rate : 5 875 b/s
Count of elements : 1018
Stream size : 4.06 MiB (0%)
Language : Danish
Default : No
Forced : No

Text #4
ID : 6
Format : VobSub
Muxing mode : zlib
Codec ID : S_VOBSUB
Codec ID/Info : Picture based subtitle format used on DVDs
Duration : 1 h 36 min
Bit rate : 5 489 b/s
Count of elements : 1565
Stream size : 3.79 MiB (0%)
Language : Finnish
Default : No
Forced : No

Text #5
ID : 7
Format : VobSub
Muxing mode : zlib
Codec ID : S_VOBSUB
Codec ID/Info : Picture based subtitle format used on DVDs
Duration : 1 h 36 min
Bit rate : 6 476 b/s
Count of elements : 1587
Stream size : 4.47 MiB (0%)
Language : French
Default : No
Forced : No

Text #6
ID : 8
Format : VobSub
Muxing mode : zlib
Codec ID : S_VOBSUB
Codec ID/Info : Picture based subtitle format used on DVDs
Duration : 1 h 36 min
Bit rate : 6 203 b/s
Count of elements : 1584
Stream size : 4.28 MiB (0%)
Language : Norwegian Bokmal
Default : No
Forced : No

Text #7
ID : 9
Format : VobSub
Muxing mode : zlib
Codec ID : S_VOBSUB
Codec ID/Info : Picture based subtitle format used on DVDs
Duration : 1 h 36 min
Bit rate : 6 662 b/s
Count of elements : 1576
Stream size : 4.60 MiB (0%)
Language : Portuguese
Default : No
Forced : No

Text #8
ID : 10
Format : VobSub
Muxing mode : zlib
Codec ID : S_VOBSUB
Codec ID/Info : Picture based subtitle format used on DVDs
Duration : 1 h 36 min
Bit rate : 6 410 b/s
Count of elements : 1575
Stream size : 4.43 MiB (0%)
Language : Spanish
Default : No
Forced : No

Text #9
ID : 11
Format : VobSub
Muxing mode : zlib
Codec ID : S_VOBSUB
Codec ID/Info : Picture based subtitle format used on DVDs
Duration : 1 h 36 min
Bit rate : 6 377 b/s
Count of elements : 1592
Stream size : 4.41 MiB (0%)
Language : Swedish
Default : No
Forced : No

Menu
00:00:00.000 : en:Chapter 01
00:03:45.892 : en:Chapter 02
00:08:58.287 : en:Chapter 03
00:11:45.913 : en:Chapter 04
00:14:59.565 : en:Chapter 05
00:19:38.218 : en:Chapter 06
00:22:52.788 : en:Chapter 07
00:28:27.247 : en:Chapter 08
00:30:26.115 : en:Chapter 09
00:33:45.481 : en:Chapter 10
00:36:57.256 : en:Chapter 11
00:39:18.356 : en:Chapter 12
00:42:35.344 : en:Chapter 13
00:46:21.028 : en:Chapter 14
00:51:37.719 : en:Chapter 15
00:53:25.285 : en:Chapter 16
00:56:28.718 : en:Chapter 17
00:59:35.405 : en:Chapter 18
01:04:03.172 : en:Chapter 19
01:08:15.466 : en:Chapter 20
01:11:29.910 : en:Chapter 21
01:16:25.247 : en:Chapter 22
01:23:10.110 : en:Chapter 23
01:27:36.668 : en:Chapter 24


Source Information

Code:

Release : The.Boss.Baby.2017.1080p.BluRay.AVC.DTS-HD.MA.7.1-FGT
Complete name : The_Boss_Baby_t02.mkv
File size : 24.8 GiB
Duration : 1 h 37 min
Overall bit rate mode : Variable
Overall bit rate : 36.4 Mb/s


Files:

The Boss Baby 2017 (1080p Bluray x265 HEVC 10bit AAC 7.1 Tigole) Featurettes
  • Babies vs. Puppies - Who Do YOU Love.mkv (31.0 MB)
  • Babycorp and You - New Employee Orientation.mkv (37.0 MB)
  • Cookies for Closers - Inside Babycorp.mkv (38.7 MB)
  • Deleted Scenes.mkv (69.8 MB)
  • The Boss Baby and Tim's Treasure Hunt Through Time.mkv (42.3 MB)
  • The Boss Baby's Undercover Team.mkv (27.8 MB)
  • The Forever Puppy Infomercial.mkv (26.1 MB)
  • The Great Sibling Competition.mkv (29.3 MB)
  • Trailer.mkv (14.9 MB)
  • The Boss Baby 2017 (1080p x265 10bit Tigole).mkv (2.1 GB)

Comments

Code:

  • udp://tracker.torrent.eu.org:451/announce
  • udp://tracker.opentrackr.org:1337/announce
  • udp://tracker.coppersurfer.tk:6969/announce