The.Huntsman.Winters.War.2016.Extended.Cut.1080p.10bit.HDR.BluRay...

  • Category Movies
  • Type HD
  • Language English
  • Total size 1.9 GB
  • Uploaded By Mzabi
  • Downloads 767
  • Last checked 18 hours ago
  • Date uploaded 6 days ago
  • Seeders 19
  • Leechers 5

The Huntsman Winter's War

ActionAdventureDramaFantasy

As two evil sisters prepare to conquer the land, two renegades - Eric the Huntsman - who previously aided Snow White in defeating Ravenna, and his forbidden lover, Sara, set out to stop them.

Infohash : BCB2E9DA9D96AB22843D0B6AE3D05477FF2CF610

Release Name..: The.Huntsman.Winters.War.2016.Extended.Cut.1080p.10bit.HDR.BluRay.5.1.x265.HEVC-MZABI
Video.........: 1080p HDR HEVC @ 2000 kbps
Audio #1......: HE-AAC @ 6CH @ 192 kbps
Subtitle #1...: English PGS
Subtitle #2...: Arabic pgs (EUR BluRay)
Chapters......: Numbered
Source........: The.Huntsman.Winters.War.2016.COMPLETE.UHD.BLURAY-TERMiNAL - 58.72 GB (Thanks!)



Mediainfo:

General
Unique ID : 221892676674325518132466572763309587210 (0xA6EEF99C88137F71ABAEFCB8C740BB0A)
Complete name : The.Huntsman.Winters.War.2016.Extended.Cut.1080p.10bit.HDR.BluRay.5.1.x265.HEVC-MZABI.mkv
Format : Matroska
Format version : Version 4 / Version 2
File size : 1.85 GiB
Duration : 2 h 0 min
Overall bit rate : 2 208 kb/s
Encoded date : UTC 2017-07-15 17:16:07
Writing application : mkvmerge v9.6.0 ('Slave To Your Mind') 64bit
Writing library : libebml v1.3.4 + libmatroska v1.4.5

Video
ID : 1
Format : HEVC
Format/Info : High Efficiency Video Coding
Format profile : Main [email protected]@Main
Codec ID : V_MPEGH/ISO/HEVC
Duration : 2 h 0 min
Bit rate : 2 000 kb/s
Width : 1 920 pixels
Height : 808 pixels
Display aspect ratio : 2.40:1
Frame rate mode : Constant
Frame rate : 23.976 (24000/1001) FPS
Original frame rate : 23.976 (23976/1000) FPS
Color space : YUV
Chroma subsampling : 4:2:0
Bit depth : 10 bits
Bits/(Pixel*Frame) : 0.054
Stream size : 1.68 GiB (91%)
Title : HEVC x265 10bit HDR BT2020 Video / 2000 kbps / 1080p / 23.976 fps / Main 10 Profile 4
Writing library : x265 1.9:[Linux][GCC 4.6.2][64 bit] 10bit
Encoding settings : wpp / ctu=64 / min-cu-size=8 / max-tu-size=32 / tu-intra-depth=1 / tu-inter-depth=1 / me=3 / subme=3 / merange=57 / rect / no-amp / max-merge=3 / temporal-mvp / no-early-skip / rdpenalty=0 / no-tskip / no-tskip-fast / strong-intra-smoothing / no-lossless / no-cu-lossless / no-constrained-intra / no-fast-intra / no-open-gop / no-temporal-layers / interlace=0 / keyint=250 / min-keyint=23 / scenecut=0 / rc-lookahead=25 / lookahead-slices=4 / bframes=4 / bframe-bias=0 / b-adapt=2 / ref=3 / limit-refs=3 / limit-modes / weightp / no-weightb / aq-mode=1 / qg-size=32 / aq-strength=1.00 / cbqpoffs=0 / crqpoffs=0 / rd=4 / psy-rd=2.00 / rdoq-level=2 / psy-rdoq=1.00 / signhide / deblock / sao / no-sao-non-deblock / b-pyramid / cutree / no-intra-refresh / rc=2 / pass / bitrate=2000 / qcomp=0.60 / qpmin=0 / qpmax=51 / qpstep=4 / cplxblur=20.0 / qblur=0.5 / ipratio=1.40 / pbratio=1.30
Default : Yes
Forced : No
Color range : Limited
Color primaries : BT.2020
Transfer characteristics : SMPTE ST 2084
Matrix coefficients : BT.2020 non-constant

Audio
ID : 2
Format : AAC
Format/Info : Advanced Audio Codec
Format profile : HE-AAC / LC
Codec ID : A_AAC
Duration : 2 h 0 min
Bit rate : 192 kb/s
Channel(s) : 6 channels
Channel positions : Front: L C R, Side: L R, LFE
Sampling rate : 48.0 kHz / 24.0 kHz
Frame rate : 23.438 FPS (1024 spf)
Compression mode : Lossy
Delay relative to video : 40 ms
Stream size : 165 MiB (9%)
Title : HE-AAC / 5.1 / 48 kHz / 192 kbps
Language : English
Default : No
Forced : No

Text #1
ID : 3
Format : PGS
Muxing mode : zlib
Codec ID : S_HDMV/PGS
Codec ID/Info : Picture based subtitle format used on BDs/HD-DVDs
Duration : 1 h 59 min
Bit rate : 8 522 b/s
Count of elements : 2652
Stream size : 7.28 MiB (0%)
Language : English
Default : No
Forced : No

Text #2
ID : 4
Format : PGS
Muxing mode : zlib
Codec ID : S_HDMV/PGS
Codec ID/Info : Picture based subtitle format used on BDs/HD-DVDs
Duration : 1 h 59 min
Bit rate : 5 629 b/s
Count of elements : 2198
Stream size : 4.81 MiB (0%)
Language : Arabic
Default : No
Forced : No

Menu
00:00:00.000 : en:Chapter 1
00:06:26.427 : en:Chapter 2
00:09:26.857 : en:Chapter 3
00:15:03.193 : en:Chapter 4
00:21:33.500 : en:Chapter 5
00:30:17.857 : en:Chapter 6
00:36:08.165 : en:Chapter 7
00:40:55.661 : en:Chapter 8
00:46:56.438 : en:Chapter 9
00:52:05.747 : en:Chapter 10
00:59:35.530 : en:Chapter 11
01:04:23.943 : en:Chapter 12
01:11:16.688 : en:Chapter 13
01:15:19.222 : en:Chapter 14
01:22:42.832 : en:Chapter 15
01:28:15.206 : en:Chapter 16
01:33:58.007 : en:Chapter 17
01:39:21.955 : en:Chapter 18
01:48:13.903 : en:Chapter 19
01:50:19.571 : en:Chapter 20

Files:

  • The.Huntsman.Winters.War.2016.Extended.Cut.1080p.10bit.HDR.BluRay.5.1.x265.HEVC-MZABI.mkv (1.9 GB)

There are currently no comments. Feel free to leave one :)

Code:

  • http://p4p.arenabg.com:1337/announce
  • udp://tracker.coppersurfer.tk:6969/announce
  • udp://95.213.191.124:2710/announce
  • udp://tracker.leechers-paradise.org:6969/announce
  • udp://tracker.zer0day.to:1337/announce
  • http://bt.artvid.ru:6969/announce