Sand.Storm.[Sufat.Chol].2016.DVDRip.x264.AC3.HORiZON-ArtSubs

  • Category Movies
  • Type h.264/x264
  • Language Arabic
  • Total size 1.6 GB
  • Uploaded By noriegaRJ
  • Downloads 79
  • Last checked 9 minutes ago
  • Date uploaded 5 days ago
  • Seeders 14
  • Leechers 4

Infohash : 058384E760406B27118B15CD3828277C466EC987

Release: Sand.Storm.[Sufat.Chol].2016.DVDRip.x264.AC3.HORiZON-ArtSubs



IMDB: http://www.imdb.com/title/tt4365518/

Subtitles: English and Hebrew.

Plot: Desert noon in a Bedouin village in Southern Israel. Jalila is hosting an awkward celebration - the marriage of her husband to a second, much younger wife - while trying to conceal the insult that boils inside her. Her daughter Layla is preoccupied with a different matter. Her secret, strictly forbidden, love affair with Anuar was just unveiled by her mother. Jalila believes that the world is harsh and cruel, and the only way to win - is to keep your mouth shut, your head as high as possible without raising too much attention, and struggle from inside the limits of the traditional world surrounding you. Layla believes that there are no limits to the world surrounding her. Everything can be hers if she only wished hard enough. But, as the story unfolds, they each fail in her individual battle. Their whole family falls apart and everything they believe in shatters. Now, the two women are forced to understand that, if they wish to survive, they will have to start seeing the world from.


Complete name : Sand.Storm.[Sufat.Chol].2016.DVDRip.x264.AC3.HORiZON-ArtSubs
Format : Matroska
Format version : Version 2
File size : 1.64 GiB
Duration : 1h 24mn
Overall bit rate : 2 785 Kbps
Writing application : HandBrake 0.9.5
Writing library : libmkv 0.6.4.1

Video
ID : 1
Format : AVC
Format/Info : Advanced Video Codec
Format profile : [email protected]
Format settings, CABAC : Yes
Format settings, ReFrames : 4 frames
Codec ID : V_MPEG4/ISO/AVC
Duration : 1h 24mn
Bit rate : 2 365 Kbps
Width : 720 pixels
Height : 432 pixels
Display aspect ratio : 2.40:1
Original display aspect ratio : 2.40:1
Frame rate mode : Constant
Frame rate : 25.000 fps
Color space : YUV
Chroma subsampling : 4:2:0
Bit depth : 8 bits
Scan type : Progressive
Bits/(Pixel*Frame) : 0.304
Stream size : 1.34 GiB (82%)
Writing library : x264 core 112
Language : English
Default : Yes
Forced : No

Audio
ID : 2
Format : AC-3
Format/Info : Audio Coding 3
Mode extension : CM (complete main)
Format settings, Endianness : Big
Codec ID : A_AC3
Duration : 1h 24mn
Bit rate mode : Constant
Bit rate : 448 Kbps
Channel count : 6 channels
Channel positions : Front: L C R, Side: L R, LFE
Sampling rate : 48.0 KHz
Bit depth : 16 bits
Compression mode : Lossy
Stream size : 270 MiB (16%)
Default : Yes
Forced : No

Text #1
ID : 3
Format : VobSub
Codec ID : S_VOBSUB
Codec ID/Info : The same subtitle format used on DVDs
Language : English
Default : No
Forced : No

Text #2
ID : 4
Format : VobSub
Codec ID : S_VOBSUB
Codec ID/Info : The same subtitle format used on DVDs
Default : No
Forced : No


SCREENSHOTS:








Files:

  • Sand.Storm.[Sufat.Chol].2016.DVDRip.x264.AC3.HORiZON-ArtSubs.mkv (1.6 GB)

There are currently no comments. Feel free to leave one :)

Code:

  • udp://tracker.openbittorrent.com:80/announce
  • http://tracker.coppersurfer.tk:6969/announce
  • udp://open.demonii.com:1337